#TITLE:No Other;
#SUBTITLE:Expi3nze;
#ARTIST:Super Junior;
#TITLETRANSLIT:;
#SUBTITLETRANSLIT:;
#ARTISTTRANSLIT:;
#CREDIT:;
#BANNER:bn.png;
#BACKGROUND:bg.png;
#LYRICSPATH:;
#CDTITLE:cdtitle.png;
#MUSIC:No Other.mp3;
#OFFSET:-0.355;
#SAMPLESTART:76.539;
#SAMPLELENGTH:12.000;
#SELECTABLE:YES;
#BPMS:0.000=151.999,8.000=152.008,9.000=151.999,18.000=152.008,19.000=151.999,27.000=152.008,28.000=151.999,37.000=152.008,38.000=151.999,47.000=152.008,48.000=151.999,56.000=152.008,57.000=151.999,66.000=152.008,67.000=151.999,76.000=152.008,77.000=151.999,85.000=152.008,86.000=151.999,95.000=152.008,96.000=151.999,104.000=152.008,105.000=151.999,114.000=152.008,115.000=151.999,124.000=152.008,125.000=151.999,133.000=152.008,134.000=151.999,143.000=152.008,144.000=151.999,153.000=152.008,154.000=151.999,162.000=152.008,163.000=151.999,172.000=152.008,173.000=151.999,181.000=152.008,182.000=151.999,191.000=152.008,192.000=151.999,200.000=152.008,201.000=151.999,210.000=152.008,211.000=151.999,219.000=152.008,220.000=151.999,229.000=152.008,230.000=151.999,240.000=152.008,241.000=151.999,249.000=152.008,250.000=151.999,259.000=152.008,260.000=151.999,268.000=152.008,269.000=151.999,278.000=152.008,279.000=151.999,288.000=152.008,289.000=151.999;
#STOPS:;
#BGCHANGES:;
// cache tags:
#FIRSTBEAT:1.000;
#LASTBEAT:289.000;
#SONGFILENAME:Songs/SDO 7/No Other (SJ)/No Other.sm;
#HASMUSIC:1;
#HASBANNER:1;
#MUSICLENGTH:117.501;
// end cache tags

//---------------dance-single - ----------------
#NOTES:
     dance-single:
     :
     Hard:
     11:
     1.000,0.830,1.000,0.443,0.183,560.000,227.000,52.000,0.000,28.000:
0000
0000
2000
0200
3302
0003
0110
0000
,
0110
0000
0020
1200
2331
3000
0110
0000
,
0110
0110
0020
0002
1233
0300
0011
0000
,
0011
0000
2000
0102
3123
0030
0110
0000
,
0110
0000
1000
0100
0012
0000
0020
0000
2033
0000
3000
0000
0011
0000
0000
0000
,
0011
0000
0200
2010
3312
0003
1001
0000
,
1001
1001
2000
0200
3321
0030
1100
0000
,
1100
0000
0002
1020
2133
3000
0110
0000
,
0010
0000
1000
0100
0011
0000
1000
0000
0100
0000
0010
0000
1100
0000
0001
0010
,
0100
0000
0001
0000
0010
0000
1100
0000
0011
0000
1000
0000
1010
0000
1000
0010
,
0100
1010
0011
0100
1001
0010
1001
0010
,
0100
0000
0000
0000
0001
0000
1100
0000
1100
0000
0001
0000
0011
0000
0100
0001
,
1000
0000
0110
0000
0110
0001
0010
0000
1000
0000
0100
0000
0011
0000
1000
0100
,
1000
0000
0100
0000
0010
0000
0101
0000
1010
0000
1000
0000
0011
0000
1000
0100
,
0010
1100
0011
0100
1010
0001
1100
0001
,
0010
0000
1000
0000
0010
0000
1100
0000
0011
0000
1000
0000
0011
0000
1000
0100
,
0001
0000
0110
0000
0110
0000
1000
0000
0001
0000
0010
0000
1100
0000
0010
0010
,
0100
0000
0001
0000
0010
0000
1100
0000
0011
0000
1000
0000
0011
0000
1000
0010
,
0100
0011
0110
1000
0001
0001
1100
0001
,
0010
0000
0100
0000
1000
0000
0011
0000
0110
0000
1000
0000
0011
0000
0100
0100
,
0001
0000
0010
0000
1100
0010
0001
0000
0100
0010
1000
0000
0011
0000
1000
0100
,
0010
0000
0001
0000
1000
0000
0011
1000
0011
0000
0100
0000
1001
0000
0010
0001
,
1000
0101
0101
0001
1100
0001
1100
0001
,
0100
0000
0010
0000
0100
0000
1001
0000
0011
0000
1000
0000
0011
0000
1000
0100
,
0001
0110
1100
0001
0010
1000
0011
1000
,
0001
0010
0100
1001
0011
1000
0011
1000
,
0100
1010
0101
0000
0101
0000
0011
1000
,
0100
1000
0010
0101
1100
0001
1100
0001
,
1000
0000
0010
0001
0110
0000
0000
0000
1000
0000
0100
0000
0011
0000
1000
0000
,
0100
0001
1000
0011
1100
0001
0110
1000
,
0001
0100
0110
0000
1001
0000
1001
0000
,
0010
0010
1000
0011
0011
0100
1000
0000
,
1000
0000
0001
0100
0011
0000
1000
0000
0100
0000
0001
0000
1010
0000
0100
0000
,
0001
0010
0100
1010
1010
1000
0011
0100
,
1000
0000
0011
0000
0011
0000
1000
0100
0011
0000
1000
0000
0101
0000
0001
0000
,
1000
0100
0010
0000
0100
0000
1001
0000
1001
0000
1000
0000
0011
0000
1000
0000
,
0011
0000
0001
0010
1001
0000
0001
0000
1000
0000
0100
0000
0011
0000
1000
0000
,
0001
0010
0100
1010
0101
1000
0011
1000
,
0100
0011
1100
0010
0001
1000
1001
0010
,
0100
1000
0001
1100
1100
0000
0110
0000
,
0001
0000
1000
0100
0011
0000
0001
0000
1000
0000
0100
0000
0011
0000
1000
0000
,
0100
0010
0020
1100
1100
0000
0132
0000
,
0013
1001
0011
1000
0010
0000
0011
0000
,
1000
0000
0002
1100
1100
0003
0011
0000
,
0010
0000
0100
1000
0101
0000
1000
0000
0100
0000
0010
0000
1001
0000
0100
0000
,
1000
0001
1000
0011
1100
0001
0110
0001
,
1000
0110
0011
1000
0100
1000
0011
1000
,
0010
0100
1000
0011
0011
1100
0011
1100
,
0011
0000
1000
0100
0011
0000
1000
0000
0100
0000
0010
0000
1100
0000
0001
0010
,
0100
0000
0001
0000
0010
0000
1100
0000
0011
0000
1000
0000
1010
0000
1000
0010
,
0100
1010
0011
0100
1001
0010
1001
0010
,
0100
0000
0000
0000
0001
0000
1100
0000
1100
0000
0001
0000
0011
0000
0100
0001
,
1000
0000
0110
0000
0110
0001
0010
0000
1000
0000
0100
0000
0011
0000
1000
0100
,
1000
0000
0100
0000
0010
0000
0101
0000
1010
0000
1000
0000
0011
0000
1000
0100
,
0010
1100
0011
0100
1010
0001
1100
0001
,
0010
0000
1000
0000
0010
0000
1100
0000
0011
0000
1000
0000
0011
0000
1000
0100
,
0001
0000
0110
0000
0110
0000
1000
0000
0001
0000
0010
0000
1100
0000
0010
0010
,
0100
0000
0001
0000
0010
0000
1100
0000
0011
0000
1000
0000
0011
0000
1000
0010
,
0100
0011
0110
1000
0001
0001
1100
0001
,
0010
0000
0100
0000
1000
0000
0011
0000
0110
0000
1000
0000
0011
0000
0100
0100
,
0001
0000
0010
0000
1100
0010
0001
0000
0100
0010
1000
0000
0011
0000
1000
0100
,
0010
0000
0001
0000
1000
0000
0011
1000
0011
0000
0100
0000
1001
0000
0010
0001
,
1000
0101
0101
0001
1100
0001
1100
0001
,
0100
0000
0010
0000
0100
0000
1001
0000
0011
0000
1000
0000
0011
0000
1000
0100
,
0001
0011
2000
0000
3002
0003
0110
0000
,
0110
0000
0020
1200
2331
3000
0110
0000
,
0110
0110
0020
0002
1233
0300
0011
0000
,
0011
0000
2000
0102
3123
0030
0110
0000
,
0110
0000
1000
0100
0012
0000
0020
0000
2033
0000
3000
0000
0011
0000
0000
0000
,
0011
0000
0200
2010
3312
0003
1001
0000
,
1001
1001
2000
0200
3321
0030
1100
0000
,
1100
0000
0002
1020
2133
3000
0110
0000
,
0200
0020
0330
0000
0000
0000
0000
0000
;
